#TITLE:Disco Hell;
#SUBTITLE:;
#ARTIST:Captain E.;
#TITLETRANSLIT:;
#SUBTITLETRANSLIT:;
#ARTISTTRANSLIT:;
#CREDIT:;
#BANNER:Disco Hell-banner.png;
#BACKGROUND:Disco Hell-bg.png;
#LYRICSPATH:;
#CDTITLE:;
#MUSIC:disco hell.mp3;
#MUSICLENGTH:96.339;
#OFFSET:-0.440;
#SAMPLESTART:66.085;
#SAMPLELENGTH:12.000;
#SELECTABLE:YES;
#BPMS:0.000=127.700;
#STOPS:;
#BGCHANGES:;
#FIRSTBEAT:4.000;

#LASTBEAT:199.500;

#SONGFILENAME:Songs/ERICth MIX 2nd Style/Disco Hell/disco.sm;

#HASMUSIC:1;

#HASBANNER:1;


//---------------dance-single - MANIAC----------------
#NOTES:
     dance-single:
     MANIAC:
     hard:
     7:
     0.420,0.465,0.228,0.093,0.010,252.000,22.000,9.000,0.000,0.000:

0000
0000
0000
0000
,
0000
0000
0000
0000
,
0000
0000
0000
0000
,
0000
0000
0000
0000
,
0000
0000
1100
0101
,
0110
0000
1000
0100
0010
0100
1000
0000
,
0110
0000
0001
0100
0010
0100
0001
0000
,
0110
0000
1000
0001
0010
0001
0100
0000
,
0100
0010
0100
0010
0100
0000
0100
0000
,
1001
0000
1001
0000
1000
0100
0020
0000
,
0130
0000
0100
0010
0100
0000
0200
0000
0000
0000
0300
0000
0000
0000
0000
0000
,
1000
0000
1000
0001
1000
0000
0000
0000
0200
0000
0000
0000
0300
0000
0000
0000
,
0200
0000
0010
0310
,
0010
0100
0000
0100
0010
0100
0001
1000
,
0100
0000
0000
0000
,
1000
0100
0010
0100
0100
0000
0000
0000
,
0002
0000
0000
0000
1000
0000
0100
0003
,
1000
0010
0100
0110
,
1000
0100
0010
0100
,
0001
0001
0200
0301
,
1000
0100
0020
0130
,
0011
0000
0000
1000
,
0010
0001
0100
0010
,
0100
1000
1100
1000
,
0010
0001
0100
0100
,
1001
0100
0010
0100
0001
0100
1000
0010
,
1000
0100
1000
0001
1000
0001
1000
0000
,
1001
0010
0001
1000
0100
1000
0100
0010
,
0100
0010
1000
0001
0100
1000
1000
0000
,
0110
0001
1000
0100
1000
0010
0100
0010
,
0001
0010
1000
0100
0010
0100
1000
0001
,
1000
0000
0100
0000
0010
0100
0010
0000
,
2000
0000
0000
0000
,
3001
0000
1000
0000
0010
1000
0100
1000
,
0001
0000
0010
0000
0100
0010
0100
0000
,
1001
0000
0010
0000
0100
1000
0001
0000
,
0100
1000
0010
0000
1010
0000
0011
0000
,
0110
0000
0100
0000
1000
0001
0010
0100
,
1000
0001
0100
0010
0100
0010
0001
1000
,
0010
1000
0001
0010
0001
1000
0010
0000
,
1000
0001
1001
0110
,
1001
0100
1000
0000
1010
0100
1000
0001
,
0010
0001
0010
0100
0010
0001
1000
0010
,
0001
0010
1000
0100
0001
0100
1000
0010
,
0001
0010
1000
0010
0100
0010
0100
0010
,
1001
0010
1000
0100
0010
0001
0010
0010
,
0001
0010
0001
1000
0010
0100
0001
0010
,
0001
1000
0100
0010
0001
1000
0010
0100
,
0001
1000
0010
1000
0100
0001
0100
0001
,
2000
0000
0000
3000;

//---------------dance-single - ANOTHER----------------
#NOTES:
     dance-single:
     ANOTHER:
     medium:
     5:
     0.285,0.311,0.104,0.010,0.000,181.000,10.000,1.000,0.000,0.000:

0000
0000
0000
0000
,
0001
0000
0000
0000
,
1000
0000
0000
0000
,
1000
0000
0000
0000
,
0001
0000
0010
0100
,
1000
0001
0010
0100
,
0010
0100
0001
0001
,
1000
0010
0100
0010
,
0100
0010
0110
0000
,
1001
0100
1000
0010
,
1000
0100
0001
0010
,
0001
0100
0010
0100
,
0010
0000
0100
0010
,
0100
0001
1000
0100
,
0010
0100
0010
1000
,
0001
1000
0001
0010
,
0011
0000
0101
0000
,
0001
0010
0100
0010
,
0100
0010
0100
0000
0001
0000
0000
0000
,
1000
0010
0100
0010
,
0001
0010
0001
0000
1000
0000
0000
0000
,
0010
1000
0100
0001
,
1000
0010
1000
0000
0000
0000
0000
0000
,
0001
1000
0100
0010
,
0010
0100
0010
0000
0000
0000
0000
0000
,
0010
1000
0001
0100
,
0010
0001
1010
0101
,
0010
0100
0010
0110
,
0001
1000
0011
1100
,
0110
0001
1000
0010
,
0100
0100
0010
0010
,
0001
1000
0100
0010
,
0100
0000
0100
0000
0100
0100
0100
0000
,
0010
0001
1000
0010
,
0001
1000
0010
0000
0001
0000
0100
0000
,
0001
0000
1000
0000
0010
1000
0100
0000
,
0001
1000
0100
0100
,
0100
0000
0001
0000
0010
0001
0010
0000
,
0001
1000
0010
0100
,
0010
0001
0100
0000
,
0100
0000
1000
0001
,
0100
0100
1000
0010
,
0010
1000
0001
1000
,
0001
1000
0001
0000
0001
0000
0001
0000
,
0001
1000
0001
0010
,
0001
0100
0010
0100
,
0001
0100
0001
0000
0100
1000
0100
0000
,
0010
0100
0001
0000
,
0001
1000
0001
0100
,
0020
0000
0000
0000
0000
0000
0000
0030;

//---------------dance-single - BASIC----------------
#NOTES:
     dance-single:
     BASIC:
     easy:
     2:
     0.135,0.178,0.073,0.073,0.000,77.000,7.000,7.000,0.000,0.000:

0000
0000
0000
0000
,
0000
0000
0000
0000
,
0000
0000
0000
0000
,
0000
0000
0000
0000
,
0000
0000
0000
0000
,
0100
0000
0001
0000
,
0001
0000
0100
0000
,
0010
0000
0010
0000
,
1000
0000
0100
0000
,
0010
0000
0001
0000
,
0010
0000
1000
0000
,
0001
0000
0020
0000
,
0000
0000
0000
0030
,
0001
0000
1000
0000
,
0100
0000
0100
0000
,
0010
0000
1001
0000
,
2002
0000
0000
3003
,
0000
0000
0000
0000
,
0100
0000
0000
0000
,
0000
0000
0000
0000
,
0010
0000
0000
0001
,
1000
0000
0000
0000
,
0010
0000
0100
0000
,
0010
0000
0011
0000
,
0000
0000
0011
0000
,
0001
0000
1000
0000
,
0100
0000
0001
0000
,
0010
0000
0010
0000
,
0001
0000
0001
0000
,
0001
0000
1000
0000
,
0010
0000
0100
0000
,
0001
0000
0010
0000
,
1000
0000
0010
0000
,
0100
0000
1000
0000
,
0010
0000
0001
0000
,
0001
0000
1000
0000
,
0100
0000
0010
0000
,
0001
0000
0001
0000
,
1000
0000
0010
0100
,
0110
0000
0000
0000
,
0110
0000
0001
1000
,
0020
0030
0010
0000
,
0000
0000
0000
0000
,
0200
0300
0100
0000
,
0100
0000
0000
0000
,
2000
3000
1000
0000
,
0002
0003
0001
0000
,
0010
0000
0010
0000
,
0100
0000
1000
0000
,
0110
0000
0000
0000;
